<?xml version="1.0" standalone="no"?>
<!DOCTYPE svg PUBLIC "-//W3C//DTD SVG 1.1//EN" "http://www.w3.org/Graphics/SVG/1.1/DTD/svg11.dtd" >
<svg xmlns="http://www.w3.org/2000/svg">
<metadata></metadata>
<defs>
<font id="segoe_uisemibold" horiz-adv-x="1137" >
<font-face units-per-em="2048" ascent="1638" descent="-410" />
<missing-glyph horiz-adv-x="563" />
<glyph horiz-adv-x="0" />
<glyph horiz-adv-x="682" />
<glyph unicode="&#xd;" horiz-adv-x="154" />
<glyph unicode=" "  horiz-adv-x="563" />
<glyph unicode="&#x09;" horiz-adv-x="563" />
<glyph unicode="&#xa0;" horiz-adv-x="563" />
<glyph unicode="!" horiz-adv-x="622" d="M167 112q0 57 42 97t102 40q58 0 100.5 -40t42.5 -97q0 -55 -42.5 -93.5t-100.5 -38.5q-60 0 -102 38.5t-42 93.5zM187 1434h235l-19 -1012h-190z" />
<glyph unicode="&#x22;" horiz-adv-x="896" d="M162 1442h212l-30 -447h-152zM522 1442h213l-30 -447h-153z" />
<glyph unicode="#" horiz-adv-x="1211" d="M34 493l28 140h232l55 276h-244l29 140h244l80 385h161l-79 -385h242l82 385h158l-80 -385h228l-31 -140h-227l-58 -276h248l-35 -140h-242l-82 -370h-159l80 370h-242l-78 -370h-159l78 370h-229zM450 633h245l59 276h-244z" />
<glyph unicode="$" d="M144 1048q0 149 106 257.5t269 130.5v180h123v-176q210 -6 290 -56v-214q-109 80 -290 86v-461q220 -102 301 -198t81 -217q0 -147 -101 -246t-281 -126v-217h-123v209q-222 0 -361 86v223q61 -53 165.5 -89t195.5 -36v445q-236 109 -305.5 201t-69.5 218zM356 1068 q0 -74 36 -121t127 -95v399q-75 -15 -119 -64t-44 -119zM642 190q170 36 170 177q0 118 -170 208v-385z" />
<glyph unicode="%" horiz-adv-x="1721" d="M84 1072q0 178 95.5 280.5t257.5 102.5q157 0 243.5 -95t86.5 -267t-97 -275.5t-254 -103.5q-152 0 -242 97.5t-90 260.5zM253 1079q0 -108 46.5 -168t127.5 -60t127 62.5t46 173.5q0 108 -45.5 168t-124.5 60q-82 0 -129.5 -63t-47.5 -173zM324 -10l919 1444h144 l-920 -1444h-143zM926 336q0 178 95.5 280.5t257.5 102.5q157 0 243.5 -95t86.5 -267t-97 -275.5t-254 -103.5q-152 0 -242 97.5t-90 260.5zM1095 343q0 -108 46.5 -168t127.5 -60t127 62.5t46 173.5q0 108 -45.5 168t-124.5 60q-82 0 -129.5 -63t-47.5 -173z" />
<glyph unicode="&#x26;" horiz-adv-x="1684" d="M99 390q0 153 88 261.5t247 177.5q-30 22 -60 51.5t-53.5 67t-38 83t-14.5 99.5q0 79 30.5 140t84.5 103t127.5 63.5t158.5 21.5q84 0 154 -21.5t120 -61.5t78 -96t28 -124q0 -121 -68.5 -200t-205.5 -135q69 -25 125 -60.5t103.5 -79.5t85 -94.5t73.5 -104.5 q75 108 113 237.5t38 271.5q0 36 -4.5 68t-12.5 63h208q10 -32 12 -60t5 -68q0 -87 -21 -175t-56 -171t-82 -166t-98 -160q35 -38 64 -66.5t59.5 -47.5t62 -28t71.5 -9q31 0 62 8t64 20v-185q-40 -18 -83.5 -27t-84.5 -9q-63 0 -111 14t-88.5 40t-78.5 63t-80 85 q-41 -39 -94.5 -75t-119 -64.5t-143 -45t-168.5 -16.5q-110 0 -202 27t-157.5 79.5t-101.5 129.5t-36 176zM335 410q0 -61 23 -107.5t63 -77.5t93 -46.5t115 -15.5q70 0 128.5 15t108 39.5t90 57t73.5 68.5q-58 85 -107 145.5t-98.5 104t-106 75t-130.5 58.5 q-55 -22 -101 -49.5t-79.5 -64.5t-52.5 -86.5t-19 -115.5zM482 1120q0 -35 10.5 -66.5t30 -58.5t45.5 -47.5t55 -35.5q108 38 161.5 89t53.5 128q0 43 -16 73.5t-40.5 50.5t-54.5 29t-59 9q-85 0 -135 -46t-51 -125z" />
<glyph unicode="'" horiz-adv-x="529" d="M158 1442h213l-30 -447h-153z" />
<glyph unicode="(" horiz-adv-x="680" d="M148 547q0 521 316 887h197q-310 -380 -310 -885q0 -501 309 -875h-196q-316 354 -316 873z" />
<glyph unicode=")" horiz-adv-x="680" d="M20 1434h198q317 -366 317 -887q0 -519 -318 -873h-196q310 374 310 875q0 505 -311 885z" />
<glyph unicode="*" horiz-adv-x="889" d="M73 1081l57 160l257 -103l-32 296h182l-32 -296l257 103l56 -160l-274 -47l192 -229l-142 -98l-148 260l-148 -260l-143 98l193 229z" />
<glyph unicode="+" horiz-adv-x="1422" d="M235 510v165h395v396h165v-396h395v-165h-395v-395h-165v395h-395z" />
<glyph unicode="," horiz-adv-x="494" d="M39 -260l110 499h219l-155 -499h-174z" />
<glyph unicode="-" horiz-adv-x="823" d="M144 474v171h546v-171h-546z" />
<glyph unicode="." horiz-adv-x="494" d="M103 112q0 56 42 96t102 40q61 0 103.5 -40t42.5 -96q0 -55 -42.5 -94.5t-103.5 -39.5q-60 0 -102 39.5t-42 94.5z" />
<glyph unicode="/" horiz-adv-x="847" d="M-37 -238l690 1672h214l-693 -1672h-211z" />
<glyph unicode="0" d="M78 688q0 380 131 575t378 195q473 0 473 -735q0 -364 -133.5 -555.5t-373.5 -191.5q-224 0 -349.5 183t-125.5 529zM315 698q0 -538 256 -538q252 0 252 547q0 566 -247 566q-261 0 -261 -575z" />
<glyph unicode="1" d="M165 1121v202l552 138v-1269h310v-192h-854v192h312v1014z" />
<glyph unicode="2" d="M101 0v191l397 385q152 147 217 244.5t65 208.5q0 114 -67.5 176.5t-192.5 62.5q-183 0 -350 -164v223q177 131 411 131q202 0 318 -101.5t116 -293.5q0 -129 -72 -252.5t-277 -323.5l-295 -283v-5h630v-199h-900z" />
<glyph unicode="3" d="M138 53v218q140 -111 316 -111q143 0 228.5 65t85.5 176q0 244 -373 244h-111v186h106q331 0 331 230q0 212 -258 212q-144 0 -271 -103v206q146 82 345 82q191 0 306 -96t115 -246q0 -283 -288 -364v-4q155 -15 245 -108.5t90 -233.5q0 -193 -145 -311.5t-382 -118.5 q-213 0 -340 77z" />
<glyph unicode="4" d="M25 346v150l622 938h248v-913h179v-175h-179v-346h-218v346h-652zM238 521h439v555q0 59 4 132h-4q-12 -32 -49 -98z" />
<glyph unicode="5" d="M164 33v223q141 -95 286 -95q146 0 235 74.5t89 198.5q0 122 -90.5 190t-259.5 68q-58 0 -215 -12v754h737v-198h-533v-359q65 4 121 4q228 0 352.5 -117t124.5 -320q0 -213 -142.5 -341.5t-391.5 -128.5q-210 0 -313 59z" />
<glyph unicode="6" d="M105 631q0 377 168.5 602t446.5 225q156 0 247 -41v-201q-107 57 -225 57q-183 0 -293 -148t-110 -397h4q97 180 320 180q183 0 291 -122t108 -326q0 -214 -133.5 -349t-338.5 -135q-227 0 -356 172t-129 483zM350 472q0 -129 67 -220.5t178 -91.5q105 0 170 79.5 t65 201.5q0 134 -62 209.5t-175 75.5q-108 0 -175.5 -75.5t-67.5 -178.5z" />
<glyph unicode="7" d="M90 1236v198h958v-94l-540 -1340h-244l525 1236h-699z" />
<glyph unicode="8" d="M91 350q0 276 301 402v4q-253 120 -253 347q0 156 127 255.5t327 99.5q181 0 297 -93t116 -239q0 -238 -266 -370v-4q308 -112 308 -388q0 -178 -135 -283t-376 -105q-195 0 -320.5 104t-125.5 270zM318 371q0 -95 70.5 -156t185.5 -61q109 0 178.5 60t69.5 151 q0 192 -262 286q-242 -97 -242 -280zM367 1093q0 -165 205 -249q208 86 208 247q0 87 -54.5 137.5t-148.5 50.5q-88 0 -149 -52.5t-61 -133.5z" />
<glyph unicode="9" d="M87 974q0 212 136 348t347 136q222 0 346.5 -167.5t124.5 -488.5q0 -396 -162 -611t-450 -215q-152 0 -263 51v201q116 -68 246 -68q189 0 294 137.5t105 390.5q-2 -1 -4 0q-89 -166 -310 -166q-179 0 -294.5 126.5t-115.5 325.5zM317 994q0 -134 66.5 -210t180.5 -76 q99 0 167.5 69.5t68.5 170.5q0 143 -68.5 234t-177.5 91q-101 0 -169 -79t-68 -200z" />
<glyph unicode=":" horiz-adv-x="494" d="M103 112q0 56 42 96t102 40q61 0 103.5 -40t42.5 -96q0 -55 -42.5 -94.5t-103.5 -39.5q-60 0 -102 39.5t-42 94.5zM103 903q0 56 42 96t102 40q61 0 103.5 -40t42.5 -96q0 -55 -42.5 -94.5t-103.5 -39.5q-60 0 -102 39.5t-42 94.5z" />
<glyph unicode=";" horiz-adv-x="494" d="M39 -264l109 503h220l-152 -503h-177zM107 908q0 56 40.5 95t99.5 39q57 0 98 -39t41 -95t-41 -96.5t-98 -40.5q-59 0 -99.5 40.5t-40.5 96.5z" />
<glyph unicode="&#x3c;" horiz-adv-x="1422" d="M266 527v106l893 466v-190l-653 -324v-4l653 -294v-189z" />
<glyph unicode="=" horiz-adv-x="1422" d="M235 295v164h955v-164h-955zM235 724v165h955v-165h-955z" />
<glyph unicode="&#x3e;" horiz-adv-x="1422" d="M266 104v189l654 291v6l-654 324v190l893 -465v-106z" />
<glyph unicode="?" horiz-adv-x="909" d="M99 1131v231q164 96 340 96q81 0 153 -21t126 -62t85 -102t31 -142q0 -77 -26 -137t-65.5 -110.5t-85 -89.5t-85 -78t-65.5 -81t-26 -93q0 -43 11 -78t22 -59h-211q-9 25 -16 65t-7 79q0 61 24.5 110.5t61 92.5t79 83t79 78t61 80t24.5 92q0 45 -18 78.5t-49.5 56 t-72 33.5t-86.5 11q-149 0 -284 -133zM274 115q0 57 42 94q43 40 101 40q57 0 100 -40q42 -37 42 -94q0 -56 -42 -94q-44 -39 -100 -39q-57 0 -101 39q-42 38 -42 94z" />
<glyph unicode="@" horiz-adv-x="1955" d="M155 606q0 366 238 607t608 241q347 0 574.5 -202t227.5 -527q0 -238 -123.5 -390.5t-301.5 -152.5q-230 0 -231 215h-5q-72 -215 -282 -215q-134 0 -216 100.5t-82 270.5q0 225 112.5 374t296.5 149q70 0 125 -38.5t71 -92.5h3q3 28 15 115h166q-47 -528 -47 -538 q0 -198 103 -198q94 0 156 110.5t62 286.5q0 260 -167.5 424.5t-464.5 164.5q-285 0 -472 -199t-187 -498q0 -295 180 -476t485 -181q240 0 411 82v-154q-175 -74 -437 -74q-368 0 -593 220t-225 576zM743 557q0 -108 45.5 -170.5t121.5 -62.5q110 0 174 113.5t64 300.5 q0 196 -160 196q-110 0 -177.5 -108t-67.5 -269z" />
<glyph unicode="A" horiz-adv-x="1375" d="M17 0l537 1434h268l533 -1434h-261l-129 365h-564l-124 -365h-260zM463 559h439l-199 572q-9 28 -19 90h-4q-9 -57 -20 -90z" />
<glyph unicode="B" horiz-adv-x="1237" d="M177 0v1434h455q208 0 329.5 -91t121.5 -237q0 -122 -69 -212t-191 -128v-4q148 -17 236.5 -109.5t88.5 -240.5q0 -184 -145 -298t-366 -114h-460zM414 190h203q133 0 205.5 61.5t72.5 169.5q0 223 -309 223h-172v-454zM414 835h154q124 0 194.5 58.5t70.5 165.5 q0 184 -246 184h-173v-408z" />
<glyph unicode="C" horiz-adv-x="1272" d="M86 690q0 344 211.5 556t534.5 212q208 0 345 -59v-236q-145 86 -320 86q-233 0 -377.5 -149t-144.5 -398q0 -237 135 -377.5t355 -140.5q203 0 352 96v-220q-162 -84 -403 -84q-312 0 -500 197t-188 517z" />
<glyph unicode="D" horiz-adv-x="1469" d="M177 0v1434h414q793 0 793 -699q0 -332 -220 -533.5t-590 -201.5h-397zM414 201h190q251 0 390.5 138t139.5 390q0 503 -521 503h-199v-1031z" />
<glyph unicode="E" horiz-adv-x="1060" d="M177 0v1434h773v-202h-535v-406h493v-201h-493v-424h567v-201h-805z" />
<glyph unicode="F" horiz-adv-x="1029" d="M177 0v1434h774v-202h-536v-431h494v-201h-494v-600h-238z" />
<glyph unicode="G" horiz-adv-x="1428" d="M85 698q0 333 215.5 546.5t547.5 213.5q239 0 402 -70v-245q-165 110 -393 110q-229 0 -375.5 -151t-146.5 -391q0 -247 126 -388.5t342 -141.5q148 0 256 57v341h-302v200h539v-681q-224 -122 -499 -122q-318 0 -515 198t-197 524z" />
<glyph unicode="H" horiz-adv-x="1506" d="M177 0v1434h238v-603h675v603h239v-1434h-239v622h-675v-622h-238z" />
<glyph unicode="I" horiz-adv-x="592" d="M46 0v192h131v1050h-131v192h500v-192h-131v-1050h131v-192h-500z" />
<glyph unicode="J" horiz-adv-x="812" d="M25 -1v224q57 -39 147 -39q238 0 238 368v882h238v-920q0 -255 -126 -396.5t-336 -141.5q-98 0 -161 23z" />
<glyph unicode="K" horiz-adv-x="1251" d="M177 0v1434h238v-674h4q12 22 34 49l481 625h285l-563 -688l606 -746h-310l-499 656q-28 37 -34 50h-4v-706h-238z" />
<glyph unicode="L" horiz-adv-x="1001" d="M177 0v1434h238v-1233h556v-201h-794z" />
<glyph unicode="M" horiz-adv-x="1893" d="M177 0v1434h335l377 -955q43 -110 56 -164h5q37 113 60 168l384 951h323v-1434h-236v928q0 114 14 279h-4q-22 -94 -39 -135l-428 -1072h-164l-429 1064q-18 47 -38 143h-4q8 -86 8 -281v-926h-220z" />
<glyph unicode="N" horiz-adv-x="1571" d="M177 0v1434h277l662 -1029q42 -64 54 -88h4q-10 57 -10 193v924h229v-1434h-260l-685 1054q-26 40 -43 83h-6q8 -46 8 -197v-940h-230z" />
<glyph unicode="O" horiz-adv-x="1548" d="M85 700q0 346 190 552t516 206q302 0 486.5 -200t184.5 -523q0 -351 -189 -555t-505 -204q-310 0 -496.5 201t-186.5 523zM335 715q0 -239 120 -385t314 -146q206 0 325 139t119 389q0 257 -115.5 397t-318.5 140q-197 0 -320.5 -147t-123.5 -387z" />
<glyph unicode="P" horiz-adv-x="1197" d="M177 0v1434h435q247 0 383 -115t136 -324t-142 -342t-384 -133h-191v-520h-237zM414 714h154q153 0 233 71t80 200q0 253 -294 253h-173v-524z" />
<glyph unicode="Q" horiz-adv-x="1548" d="M85 704q0 346 189 551q191 206 522 206q297 0 482 -200t185 -523q0 -134 -29 -253t-87.5 -215t-147 -162.5t-210.5 -95.5q53 -51 99.5 -90t92.5 -65.5t96 -40.5t110 -14q16 0 35 1.5t38 5t36.5 8t32.5 10.5v-212q-17 -6 -39 -10t-44 -7t-43.5 -4.5t-40.5 -1.5 q-104 0 -186.5 30t-154.5 82.5t-139 122.5t-141 150q-63 0 -128.5 12.5t-127 38t-117.5 63.5t-102 88q-181 201 -181 525zM334 715q0 -238 120 -386q121 -145 314 -145q207 0 326 139t119 389q0 258 -116 397q-115 140 -318 140q-198 0 -322 -147q-123 -147 -123 -387z" />
<glyph unicode="R" horiz-adv-x="1275" d="M177 0v1434h472q101 0 186 -24t148 -72.5t98.5 -121t35.5 -169.5q0 -76 -22.5 -139.5t-64 -113t-100 -84.5t-131.5 -54v-4q39 -22 68 -48.5t55 -54.5t51.5 -63.5t56.5 -82.5l255 -403h-278l-229 384q-31 53 -60.5 90.5t-60 61.5t-66.5 35t-81 11h-96v-582h-237zM414 775 h198q55 0 101.5 17t80.5 49t53 78t19 103q0 103 -65 161t-187 58h-200v-466z" />
<glyph unicode="S" horiz-adv-x="1115" d="M110 1064q0 101 45.5 175.5t120 123t169.5 72t194 23.5q225 0 328 -51v-235q-122 88 -314 88q-53 0 -105.5 -10t-94 -33t-67.5 -59t-26 -87q0 -48 20 -83t58.5 -64t94 -56.5t128.5 -59.5q75 -39 141.5 -82t117 -95t80 -115.5t29.5 -144.5q0 -109 -44 -184t-118.5 -122 t-171.5 -68t-205 -21q-36 0 -88.5 5.5t-107.5 16t-104 25.5t-79 34v245q33 -30 78.5 -54t96.5 -40.5t102 -25.5t94 -9q150 0 223.5 50t73.5 145q0 51 -24.5 88.5t-68.5 68.5t-103.5 59.5t-127.5 59.5q-73 39 -136 79t-109.5 88.5t-73 109.5t-26.5 143z" />
<glyph unicode="T" horiz-adv-x="1130" d="M36 1232v202h1061v-202h-412v-1232h-238v1232h-411z" />
<glyph unicode="U" horiz-adv-x="1440" d="M160 557v877h238v-828q0 -422 328 -422q316 0 316 407v843h238v-854q0 -604 -572 -604q-548 0 -548 581z" />
<glyph unicode="V" horiz-adv-x="1314" d="M14 1434h260l354 -1088q17 -52 26 -121h4q7 57 29 123l362 1086h252l-515 -1434h-266z" />
<glyph unicode="W" horiz-adv-x="1978" d="M22 1434h261l260 -1050q16 -66 20 -138h5q4 51 28 138l294 1050h245l272 -1058q14 -54 21 -128h4q3 50 23 132l255 1054h246l-393 -1434h-269l-273 1003q-17 64 -21 140h-4q-5 -71 -24 -138l-274 -1005h-275z" />
<glyph unicode="X" horiz-adv-x="1268" d="M17 0l470 721l-432 713h291l259 -484q25 -48 45 -96h3q29 63 50 100l269 480h268l-442 -711l451 -723h-285l-294 526q-13 24 -29 68h-4q-9 -22 -30 -68l-303 -526h-287z" />
<glyph unicode="Y" horiz-adv-x="1182" d="M10 1434h271l282 -615q5 -11 30 -83h3q9 32 33 83l295 615h252l-470 -913v-521h-238v516z" />
<glyph unicode="Z" horiz-adv-x="1202" d="M36 0v109l789 1123h-728v202h1058v-104l-786 -1129h776v-201h-1109z" />
<glyph unicode="[" horiz-adv-x="680" d="M208 -326v1760h413v-156h-216v-1448h216v-156h-413z" />
<glyph unicode="\" horiz-adv-x="829" d="M-13 1434h210l672 -1674h-206z" />
<glyph unicode="]" horiz-adv-x="680" d="M61 -170h216v1448h-216v156h413v-1760h-413v156z" />
<glyph unicode="^" horiz-adv-x="1422" d="M218 618l425 840h109l456 -840h-192l-312 604h-6l-291 -604h-189z" />
<glyph unicode="_" horiz-adv-x="850" d="M0 -178h850v-119h-850v119z" />
<glyph unicode="`" horiz-adv-x="591" d="M92 1532h214l221 -328h-173z" />
<glyph unicode="a" horiz-adv-x="1069" d="M75 275q0 290 334 338l304 43q0 219 -208 219q-183 0 -330 -126v203q162 96 374 96q388 0 388 -382v-666h-225v160h-4q-106 -184 -311 -184q-151 0 -236.5 82t-85.5 217zM297 300q0 -65 46.5 -106.5t124.5 -41.5q106 0 175.5 74.5t69.5 187.5v89l-215 -30 q-100 -13 -150.5 -48.5t-50.5 -124.5z" />
<glyph unicode="b" horiz-adv-x="1234" d="M151 0v1516h232v-672h4q119 204 348 204q194 0 303.5 -137.5t109.5 -368.5q0 -257 -123 -411.5t-336 -154.5q-200 0 -302 172h-4v-148h-232zM381 428q0 -112 71.5 -190t181.5 -78q129 0 202.5 100.5t73.5 280.5q0 151 -68.5 236.5t-185.5 85.5q-124 0 -199.5 -88 t-75.5 -220v-127z" />
<glyph unicode="c" horiz-adv-x="963" d="M85 488q0 253 150.5 406.5t402.5 153.5q140 0 247 -49v-216q-107 80 -228 80q-147 0 -241 -99.5t-94 -260.5q0 -159 88.5 -251t237.5 -92q125 0 236 89v-202q-123 -71 -291 -71q-228 0 -368 142.5t-140 369.5z" />
<glyph unicode="d" horiz-adv-x="1234" d="M85 488q0 254 125.5 407t334.5 153q207 0 301 -166h4v634h232v-1516h-232v174h-4q-112 -198 -345 -198q-189 0 -302.5 137.5t-113.5 374.5zM322 497q0 -156 71.5 -246.5t192.5 -90.5q119 0 193 87.5t74 220.5v134q0 109 -71 185t-181 76q-130 0 -204.5 -97t-74.5 -269z " />
<glyph unicode="e" horiz-adv-x="1088" d="M85 508q0 239 141.5 389.5t351.5 150.5t325 -135t115 -375v-89h-698q4 -142 87.5 -219t229.5 -77q164 0 301 98v-187q-140 -88 -370 -88q-226 0 -354.5 139.5t-128.5 392.5zM320 613h474q-1 125 -59 194.5t-160 69.5q-100 0 -169.5 -73t-85.5 -191z" />
<glyph unicode="f" horiz-adv-x="706" d="M48 842v182h175v166q0 162 106 255.5t265 93.5q86 0 136 -19v-193q-47 27 -107 27q-169 0 -169 -191v-139h238v-182h-237v-842h-232v842h-175z" />
<glyph unicode="g" horiz-adv-x="1234" d="M85 479q0 261 123 415t338 154q203 0 301 -166h4v142h232v-942q0 -564 -567 -564q-200 0 -349 67v212q168 -96 319 -96q365 0 365 359v112h-4q-115 -196 -346 -196q-187 0 -301.5 136.5t-114.5 366.5zM322 493q0 -151 71.5 -241.5t189.5 -90.5q120 0 195 86.5t75 221.5 v133q0 108 -71.5 184.5t-178.5 76.5q-132 0 -206.5 -97.5t-74.5 -272.5z" />
<glyph unicode="h" horiz-adv-x="1192" d="M151 0v1516h233v-662h4q116 194 332 194q341 0 341 -417v-631h-232v560q0 304 -203 304q-102 0 -172 -88t-70 -225v-551h-233z" />
<glyph unicode="i" horiz-adv-x="535" d="M130 1370q0 57 40.5 95t97.5 38q59 0 100 -38t41 -95q0 -54 -41 -92.5t-100 -38.5q-57 0 -97.5 37t-40.5 94zM151 0v1024h232v-1024h-232z" />
<glyph unicode="j" horiz-adv-x="535" d="M-168 -251q65 -45 123 -45q196 0 196 346v974h232v-981q0 -252 -106 -388.5t-303 -136.5q-73 0 -142 32v199zM131 1370q0 57 40.5 95t97.5 38q58 0 99 -38t41 -95q0 -54 -41 -92.5t-99 -38.5q-57 0 -97.5 37t-40.5 94z" />
<glyph unicode="k" horiz-adv-x="1075" d="M151 0v1516h233v-961h4l376 469h279l-423 -494l460 -530h-294l-398 492h-4v-492h-233z" />
<glyph unicode="l" horiz-adv-x="535" d="M151 0v1516h233v-1516h-233z" />
<glyph unicode="m" horiz-adv-x="1814" d="M151 0v1024h232v-162h4q111 186 323 186q106 0 185.5 -58.5t108.5 -153.5q114 212 340 212q338 0 338 -417v-631h-232v558q0 161 -45.5 233t-153.5 72q-91 0 -154.5 -91t-63.5 -218v-554h-233v577q0 286 -202 286q-94 0 -154.5 -86t-60.5 -223v-554h-232z" />
<glyph unicode="n" horiz-adv-x="1195" d="M151 0v1024h233v-170h4q115 194 332 194q167 0 255 -108.5t88 -313.5v-626h-232v577q0 287 -203 287q-106 0 -175 -79.5t-69 -200.5v-584h-233z" />
<glyph unicode="o" horiz-adv-x="1223" d="M85 500q0 258 147.5 403t397.5 145q240 0 374 -141t134 -391q0 -245 -144.5 -392.5t-388.5 -147.5q-237 0 -378.5 143.5t-141.5 380.5zM322 506q0 -161 80 -253.5t214 -92.5q137 0 210.5 91t73.5 259q0 169 -73.5 261t-210.5 92q-136 0 -215 -95t-79 -262z" />
<glyph unicode="p" horiz-adv-x="1234" d="M151 -471v1495h232v-180h4q119 204 348 204q195 0 304 -137t109 -368q0 -256 -123 -410t-336 -154q-196 0 -302 172h-4v-622h-232zM381 428q0 -112 71.5 -190t181.5 -78q129 0 202.5 100.5t73.5 280.5q0 151 -68.5 236.5t-185.5 85.5q-124 0 -199.5 -88t-75.5 -220v-127z " />
<glyph unicode="q" horiz-adv-x="1234" d="M85 488q0 255 125.5 407.5t337.5 152.5q206 0 298 -166h4v142h232v-1495h-232v647h-4q-105 -200 -343 -200q-189 0 -303.5 137.5t-114.5 374.5zM322 494q0 -156 72 -245t186 -89q125 0 199 87t74 219v132q0 111 -71.5 188t-181.5 77q-129 0 -203.5 -96.5t-74.5 -272.5z " />
<glyph unicode="r" horiz-adv-x="758" d="M151 0v1024h232v-211h4q34 108 104.5 168.5t157.5 60.5q63 0 96 -19v-220q-42 33 -121 33q-103 0 -172 -93t-69 -253v-490h-232z" />
<glyph unicode="s" horiz-adv-x="883" d="M87 32v215q130 -99 287 -99q210 0 210 124q0 35 -18 59.5t-48.5 43.5t-72 34t-92.5 34q-63 25 -113.5 53t-84 63.5t-50.5 80.5t-17 105q0 74 35 130.5t94 95t134 58t155 19.5q142 0 254 -43v-203q-108 74 -248 74q-44 0 -79.5 -9t-60.5 -25t-39 -38.5t-14 -49.5 q0 -33 14 -56t41.5 -40.5t66 -32t88.5 -31.5q66 -27 118.5 -55t89.5 -63.5t57 -82t20 -110.5q0 -78 -36 -136t-96 -96t-138.5 -56.5t-165.5 -18.5q-168 0 -291 56z" />
<glyph unicode="t" horiz-adv-x="740" d="M43 842v182h171v237l232 66v-303h245v-182h-245v-512q0 -91 33 -130t110 -39q59 0 102 34v-184q-68 -34 -179 -34q-298 0 -298 286v579h-171z" />
<glyph unicode="u" horiz-adv-x="1195" d="M131 412v612h232v-588q0 -276 213 -276q103 0 169.5 76t66.5 199v589h232v-1024h-232v162h-4q-101 -186 -314 -186q-363 0 -363 436z" />
<glyph unicode="v" horiz-adv-x="1039" d="M9 1024h252l227 -716q26 -79 32 -138h3q9 74 28 134l238 720h244l-396 -1024h-251z" />
<glyph unicode="w" horiz-adv-x="1549" d="M20 1024h240l186 -738q9 -33 12 -88h7q3 42 16 90l207 736h218l184 -741q9 -35 13 -88h7q2 37 15 88l182 741h221l-302 -1024h-243l-186 694q-11 40 -14 90h-4q-2 -34 -18 -88l-202 -696h-238z" />
<glyph unicode="x" horiz-adv-x="1026" d="M17 0l348 502l-330 522h270l177 -333q20 -37 39 -76h3l229 409h254l-341 -518l337 -506h-269l-180 317q-17 29 -40 74h-4q-4 -9 -42 -74l-183 -317h-268z" />
<glyph unicode="y" horiz-adv-x="1041" d="M6 1024h257l244 -744q4 -14 18 -74h5q5 23 18 72l256 746h234l-462 -1188q-144 -318 -404 -318q-73 0 -122 13v193q55 -18 100 -18q130 0 194 128l69 168z" />
<glyph unicode="z" horiz-adv-x="951" d="M29 0v87l565 756h-511v181h824v-97l-553 -746h551v-181h-876z" />
<glyph unicode="{" horiz-adv-x="680" d="M96 481v146q156 10 156 212v287q0 304 356 308v-155q-159 -4 -159 -191v-282q0 -202 -199 -249v-3q199 -44 199 -247v-279q0 -107 35.5 -152.5t123.5 -47.5v-154q-356 4 -356 304v295q0 198 -156 208z" />
<glyph unicode="|" horiz-adv-x="570" d="M189 -482v2048h194v-2048h-194z" />
<glyph unicode="}" horiz-adv-x="680" d="M74 -172q87 2 123.5 48t36.5 152v279q0 203 197 247v3q-197 47 -197 249v282q0 187 -160 191v155q354 -4 354 -308v-287q0 -202 155 -212v-146q-155 -10 -155 -208v-295q0 -300 -354 -304v154z" />
<glyph unicode="~" horiz-adv-x="1422" d="M203 421q5 155 79.5 245t201.5 90q113 0 236 -76q132 -91 197 -91q61 0 98 47t39 123h166q-7 -159 -80.5 -246.5t-199.5 -87.5q-109 0 -266 98q-97 67 -159 67q-140 0 -146 -169h-166z" />
<glyph unicode="&#xa1;" horiz-adv-x="622" d="M167 912q0 56 42.5 95.5t102.5 39.5q58 0 100 -39.5t42 -95.5t-42.5 -95t-100.5 -39q-60 0 -102 39t-42 95zM191 -406l27 1011h189l28 -1011h-244z" />
<glyph unicode="&#xa2;" d="M177 649q0 219 123 366.5t331 184.5v214h141v-203q113 -2 203 -52v-213q-93 67 -203 74v-690q112 12 203 86v-208q-88 -58 -203 -68v-189h-141v191q-208 22 -331 161t-123 346zM403 669q0 -132 61 -219t167 -111v670q-107 -27 -167.5 -117.5t-60.5 -222.5z" />
<glyph unicode="&#xa3;" d="M123 0v176q206 62 206 281v168h-185v175h185v245q0 181 115.5 297t299.5 116q124 0 226 -41v-201q-95 57 -201 57q-218 0 -218 -267v-206h284v-175h-284v-138q0 -215 -193 -301h697v-186h-932z" />
<glyph unicode="&#xa4;" horiz-adv-x="1138" d="M78 356l140 136q-72 111 -72 233q0 127 72 233l-140 138l114 118l141 -139q109 72 237 72t235 -72l141 139l114 -118l-139 -138q74 -110 74 -233q0 -119 -74 -233l139 -136l-114 -118l-140 139q-104 -71 -236 -71q-137 0 -241 68l-137 -136zM311 727q0 -106 76 -182 t183 -76q106 0 183 76t77 182t-78 182t-182 76q-109 0 -184 -76t-75 -182z" />
<glyph unicode="&#xa5;" d="M55 1434h250l231 -494q26 -56 43 -107h4q12 40 45 113l229 488h236l-355 -650h270v-161h-321v-183h321v-161h-321v-279h-228v279h-331v161h331v183h-331v161h275z" />
<glyph unicode="&#xa6;" horiz-adv-x="570" d="M189 390h194v-872h-194v872zM189 701v865h194v-865h-194z" />
<glyph unicode="&#xa7;" horiz-adv-x="952" d="M131 729q0 161 145 241q-106 84 -106 226q0 129 99.5 212t261.5 83q138 0 233 -43v-191q-100 62 -221 62q-166 0 -166 -128q0 -48 41 -88t206 -109q225 -107 225 -294q0 -170 -152 -276q90 -75 90 -189q0 -134 -107 -217.5t-273 -83.5q-140 0 -255 56v196 q132 -79 253 -79q85 0 131.5 35.5t46.5 90.5q0 47 -35.5 80t-181.5 103q-235 120 -235 313zM328 743q0 -64 53 -112t185 -104q83 60 83 152q0 64 -49.5 109t-176.5 96q-95 -45 -95 -141z" />
<glyph unicode="&#xa8;" horiz-adv-x="892" d="M107 1320q0 49 35.5 82t86.5 33t88.5 -33.5t37.5 -81.5q0 -49 -36 -83t-86 -34q-52 0 -89 34.5t-37 82.5zM526 1320q0 49 35 82t85 33q53 0 89.5 -33.5t36.5 -81.5q0 -49 -35 -83t-88 -34q-50 0 -86.5 33t-36.5 84z" />
<glyph unicode="&#xa9;" horiz-adv-x="1808" d="M148 717q0 309 221.5 527.5t535.5 218.5q313 0 534.5 -218.5t221.5 -527.5t-221.5 -527.5t-534.5 -218.5q-314 0 -535.5 218.5t-221.5 527.5zM256 717q0 -268 190 -457.5t459 -189.5t458.5 189.5t189.5 457.5t-189.5 457.5t-458.5 189.5t-459 -189.5t-190 -457.5z M450 693q0 241 143.5 384.5t373.5 143.5q132 0 235 -51v-190q-88 72 -234 72q-144 0 -237.5 -93t-93.5 -249q0 -152 95.5 -244t242.5 -92q135 0 231 78v-177q-113 -65 -268 -65q-207 0 -347.5 138t-140.5 345z" />
<glyph unicode="&#xaa;" horiz-adv-x="820" d="M77 912q0 204 243 237l224 31q0 143 -145 143q-134 0 -251 -82v150q115 64 276 64q135 0 211 -71.5t76 -201.5v-465h-167v100h-4q-77 -120 -225 -120q-107 0 -172.5 60.5t-65.5 154.5zM245 928q0 -46 34 -74.5t91 -28.5q69 0 121.5 53.5t52.5 128.5v59l-155 -22 q-144 -20 -144 -116z" />
<glyph unicode="&#xab;" horiz-adv-x="1105" d="M74 536l313 344h211l-317 -344l318 -336h-212zM507 536l311 344h214l-318 -344l318 -336h-214z" />
<glyph unicode="&#xac;" horiz-adv-x="1422" d="M235 671v164h955v-576h-164v412h-791z" />
<glyph unicode="&#xad;" horiz-adv-x="823" d="M144 474v171h546v-171h-546z" />
<glyph unicode="&#xae;" horiz-adv-x="1808" d="M148 717q0 309 221.5 527.5t535.5 218.5q313 0 534.5 -218.5t221.5 -527.5t-221.5 -527.5t-534.5 -218.5q-314 0 -535.5 218.5t-221.5 527.5zM256 717q0 -268 190 -457.5t459 -189.5t458.5 189.5t189.5 457.5t-189.5 457.5t-458.5 189.5t-459 -189.5t-190 -457.5z M594 255v940h282q176 0 271.5 -69t95.5 -187q0 -97 -58.5 -165t-172.5 -91v-4q79 -17 157 -174l124 -250h-210l-92 217q-70 163 -151 163h-78v-380h-168zM762 770h126q173 0 173 142q0 77 -46.5 109t-147.5 32h-105v-283z" />
<glyph unicode="&#xaf;" horiz-adv-x="850" d="M0 1396v120h850v-120h-850z" />
<glyph unicode="&#xb0;" horiz-adv-x="775" d="M111 1178q0 116 81 196t197 80q118 0 200.5 -80.5t82.5 -195.5q0 -118 -82 -200t-198 -82q-117 0 -199 82t-82 200zM247 1177q0 -61 41.5 -104.5t101.5 -43.5q59 0 102.5 44t43.5 104q0 61 -42.5 102.5t-101.5 41.5q-60 0 -102.5 -42t-42.5 -102z" />
<glyph unicode="&#xb1;" horiz-adv-x="1422" d="M235 0v164h954v-164h-954zM236 671v164h396v398h163v-398h395v-164h-395v-396h-163v396h-396z" />
<glyph unicode="&#xb2;" horiz-adv-x="785" d="M109 884v133l230 220q99 95 126 146t27 102t-33.5 83t-88.5 32q-117 0 -214 -102v179q87 77 242 77q126 0 199.5 -68.5t73.5 -180.5q0 -143 -193 -325l-155 -145v-4h363v-147h-577z" />
<glyph unicode="&#xb3;" horiz-adv-x="785" d="M130 916v160q104 -73 219 -73q75 0 118.5 33t43.5 89q0 124 -215 124h-82v140h78q192 0 192 117q0 106 -132 106q-97 0 -192 -67v155q92 54 225 54q122 0 194 -60.5t72 -157.5q0 -147 -144 -200v-4q174 -42 174 -200q0 -119 -90 -194t-241 -75q-140 0 -220 53z" />
<glyph unicode="&#xb4;" horiz-adv-x="597" d="M110 1218l242 328h216l-286 -328h-172z" />
<glyph unicode="&#xb5;" horiz-adv-x="1215" d="M151 -395v1419h232v-610q0 -112 59 -178.5t154 -66.5q103 0 167.5 78t64.5 210v567h235v-759q0 -188 35 -265h-239q-23 69 -23 161h-5q-73 -184 -244 -184q-141 0 -201 96h-3v-468h-232z" />
<glyph unicode="&#xb6;" horiz-adv-x="985" d="M84 1156q0 123 79.5 200.5t193.5 77.5h527v-130h-123v-1304h-136v1304h-140v-1304h-139v874q-113 0 -187.5 80t-74.5 202z" />
<glyph unicode="&#xb7;" horiz-adv-x="494" d="M103 635q0 57 42.5 96.5t102.5 39.5t102.5 -39.5t42.5 -96.5q0 -56 -43 -96t-105 -40q-59 0 -100.5 40t-41.5 96z" />
<glyph unicode="&#xb8;" horiz-adv-x="429" d="M51 -328q44 -6 71 -6q133 0 133 82q0 74 -121 74q-10 0 -39 -4v182h136v-94q87 0 138 -40.5t51 -113.5q0 -194 -288 -194q-47 0 -81 3v111z" />
<glyph unicode="&#xb9;" horiz-adv-x="759" d="M134 1516v149l361 90v-732h181v-139h-531v139h181v541z" />
<glyph unicode="&#xba;" horiz-adv-x="905" d="M74 1073q0 179 106 280t281 101q170 0 268.5 -99t98.5 -270q0 -178 -103.5 -283.5t-278.5 -105.5q-174 0 -273 101.5t-99 275.5zM253 1073q0 -111 51.5 -174t147.5 -63q91 0 144.5 65t53.5 176t-52.5 174.5t-144.5 63.5t-146 -64.5t-54 -177.5z" />
<glyph unicode="&#xbb;" horiz-adv-x="1105" d="M74 200l320 338l-320 342h214l312 -342l-312 -338h-214zM509 200l315 338l-315 342h211l313 -342l-313 -338h-211z" />
<glyph unicode="&#xbc;" horiz-adv-x="1898" d="M115 1216v149l361 90v-732h181v-139h-531v139h181v541zM383 0l873 1434h191l-875 -1434h-189zM1096 192v114l361 545h202v-529h110v-130h-110v-191h-169v191h-394zM1255 322h235v300q0 30 4 82h-5q-12 -31 -39 -74z" />
<glyph unicode="&#xbd;" horiz-adv-x="1938" d="M115 1216v149l361 90v-732h181v-139h-531v139h181v541zM381 0l873 1434h191l-875 -1434h-189zM1213 1v133l230 220q99 95 126 146t27 102t-33.5 83t-88.5 32q-117 0 -214 -102v179q87 77 242 77q126 0 199.5 -68.5t73.5 -180.5q0 -143 -193 -325l-155 -145v-4h363v-147 h-577z" />
<glyph unicode="&#xbe;" horiz-adv-x="1975" d="M130 616v160q104 -73 219 -73q75 0 118.5 33t43.5 89q0 124 -215 124h-82v140h78q192 0 192 117q0 106 -132 106q-97 0 -192 -67v155q92 54 225 54q122 0 194 -60.5t72 -157.5q0 -147 -144 -200v-4q174 -42 174 -200q0 -119 -90 -194t-241 -75q-140 0 -220 53zM447 0 l873 1434h191l-875 -1434h-189zM1152 192v114l361 545h202v-529h110v-130h-110v-191h-169v191h-394zM1311 322h235v300q0 30 4 82h-5q-12 -31 -39 -74z" />
<glyph unicode="&#xbf;" horiz-adv-x="909" d="M102 -94q0 73 26 130.5t65.5 106t85.5 90t85.5 82.5t65.5 85.5t26 98.5q0 38 -9.5 69t-18.5 53h206q9 -25 16 -64t7 -78q0 -60 -24 -109t-60 -91.5t-78 -81.5t-78 -79t-60 -84t-24 -97q0 -42 16 -74.5t43 -54.5t63 -33t76 -11q176 0 306 132v-232q-161 -94 -334 -94 q-83 0 -155.5 21.5t-127 63.5t-86.5 105t-32 146zM376 912q0 58 43 96q43 39 100 39t102 -39q43 -38 43 -96q0 -56 -43 -95q-43 -40 -102 -40q-58 0 -100 40q-43 39 -43 95z" />
<glyph unicode="&#xc0;" horiz-adv-x="1375" d="M17 0l537 1434h268l533 -1434h-261l-129 365h-564l-124 -365h-260zM393 1894h214l221 -328h-173zM463 559h439l-199 572q-9 28 -19 90h-4q-9 -57 -20 -90z" />
<glyph unicode="&#xc1;" horiz-adv-x="1375" d="M17 0l537 1434h268l533 -1434h-261l-129 365h-564l-124 -365h-260zM463 559h439l-199 572q-9 28 -19 90h-4q-9 -57 -20 -90zM496 1580l242 328h216l-286 -328h-172z" />
<glyph unicode="&#xc2;" horiz-adv-x="1375" d="M17 0l537 1434h268l533 -1434h-261l-129 365h-564l-124 -365h-260zM361 1566l224 328h184l225 -328h-160l-161 211l-157 -211h-155zM463 559h439l-199 572q-9 28 -19 90h-4q-9 -57 -20 -90z" />
<glyph unicode="&#xc3;" horiz-adv-x="1375" d="M17 0l537 1434h268l533 -1434h-261l-129 365h-564l-124 -365h-260zM345 1555q0 119 51 190.5t143 71.5q68 0 157 -51q72 -44 125 -44q81 0 81 114h119q0 -116 -51.5 -189.5t-139.5 -73.5q-72 0 -165 48q-78 45 -121 45q-84 0 -84 -111h-115zM463 559h439l-199 572 q-9 28 -19 90h-4q-9 -57 -20 -90z" />
<glyph unicode="&#xc4;" horiz-adv-x="1375" d="M17 0l537 1434h268l533 -1434h-261l-129 365h-564l-124 -365h-260zM344 1682q0 49 35.5 82t86.5 33t88.5 -33.5t37.5 -81.5q0 -49 -36 -83t-86 -34q-52 0 -89 34.5t-37 82.5zM463 559h439l-199 572q-9 28 -19 90h-4q-9 -57 -20 -90zM763 1682q0 49 35 82t85 33 q53 0 89.5 -33.5t36.5 -81.5q0 -49 -35 -83t-88 -34q-50 0 -86.5 33t-36.5 84z" />
<glyph unicode="&#xc5;" horiz-adv-x="1375" d="M17 0l537 1434h268l533 -1434h-261l-129 365h-564l-124 -365h-260zM462 1529q0 98 63 156t161 58q96 0 157.5 -58.5t61.5 -149.5q0 -87 -65.5 -144.5t-160.5 -57.5q-94 0 -155.5 54t-61.5 142zM463 559h439l-199 572q-9 28 -19 90h-4q-9 -57 -20 -90zM575 1539 q0 -104 104 -104q48 0 79.5 29.5t31.5 74.5t-31.5 74.5t-79.5 29.5q-45 0 -74.5 -30t-29.5 -74z" />
<glyph unicode="&#xc6;" horiz-adv-x="1831" d="M6 0l710 1434h1000v-202h-534v-406h497v-201h-497v-424h567v-201h-804v365h-492l-172 -365h-275zM541 559h404v673h-87z" />
<glyph unicode="&#xc7;" horiz-adv-x="1272" d="M86 690q0 344 211.5 556t534.5 212q208 0 345 -59v-236q-145 86 -320 86q-233 0 -377.5 -149t-144.5 -398q0 -237 135 -377.5t355 -140.5q203 0 352 96v-220q-162 -84 -403 -84q-312 0 -500 197t-188 517zM615 -328q44 -6 71 -6q133 0 133 82q0 74 -121 74q-10 0 -39 -4 v182h136v-94q87 0 138 -40.5t51 -113.5q0 -194 -288 -194q-47 0 -81 3v111z" />
<glyph unicode="&#xc8;" horiz-adv-x="1060" d="M177 0v1434h773v-202h-535v-406h493v-201h-493v-424h567v-201h-805zM296 1894h214l221 -328h-173z" />
<glyph unicode="&#xc9;" horiz-adv-x="1060" d="M177 0v1434h773v-202h-535v-406h493v-201h-493v-424h567v-201h-805zM415 1580l242 328h216l-286 -328h-172z" />
<glyph unicode="&#xca;" horiz-adv-x="1060" d="M177 0v1434h773v-202h-535v-406h493v-201h-493v-424h567v-201h-805zM240 1567l224 328h184l225 -328h-160l-161 211l-157 -211h-155z" />
<glyph unicode="&#xcb;" horiz-adv-x="1060" d="M177 0v1434h773v-202h-535v-406h493v-201h-493v-424h567v-201h-805zM234 1682q0 49 35.5 82t86.5 33t88.5 -33.5t37.5 -81.5q0 -49 -36 -83t-86 -34q-52 0 -89 34.5t-37 82.5zM653 1682q0 49 35 82t85 33q53 0 89.5 -33.5t36.5 -81.5q0 -49 -35 -83t-88 -34 q-50 0 -86.5 33t-36.5 84z" />
<glyph unicode="&#xcc;" horiz-adv-x="592" d="M34 1894h214l221 -328h-173zM46 0v192h131v1050h-131v192h500v-192h-131v-1050h131v-192h-500z" />
<glyph unicode="&#xcd;" horiz-adv-x="592" d="M46 0v192h131v1050h-131v192h500v-192h-131v-1050h131v-192h-500zM126 1580l242 328h216l-286 -328h-172z" />
<glyph unicode="&#xce;" horiz-adv-x="592" d="M-13 1567l224 328h184l225 -328h-160l-161 211l-157 -211h-155zM46 0v192h131v1050h-131v192h500v-192h-131v-1050h131v-192h-500z" />
<glyph unicode="&#xcf;" horiz-adv-x="592" d="M-31 1682q0 49 35.5 82t86.5 33t88.5 -33.5t37.5 -81.5q0 -49 -36 -83t-86 -34q-52 0 -89 34.5t-37 82.5zM46 0v192h131v1050h-131v192h500v-192h-131v-1050h131v-192h-500zM388 1682q0 49 35 82t85 33q53 0 89.5 -33.5t36.5 -81.5q0 -49 -35 -83t-88 -34q-50 0 -86.5 33 t-36.5 84z" />
<glyph unicode="&#xd0;" horiz-adv-x="1469" d="M15 616v205h162v613h414q793 0 793 -699q0 -334 -220 -534.5t-590 -200.5h-397v616h-162zM414 201h190q251 0 390.5 138t139.5 392q0 501 -521 501h-199v-411h307v-205h-307v-415z" />
<glyph unicode="&#xd1;" horiz-adv-x="1571" d="M177 0v1434h277l662 -1029q42 -64 54 -88h4q-10 57 -10 193v924h229v-1434h-260l-685 1054q-26 40 -43 83h-6q8 -46 8 -197v-940h-230zM478 1555q0 119 51 190.5t143 71.5q68 0 157 -51q72 -44 125 -44q81 0 81 114h119q0 -116 -51.5 -189.5t-139.5 -73.5q-72 0 -165 48 q-78 45 -121 45q-84 0 -84 -111h-115z" />
<glyph unicode="&#xd2;" horiz-adv-x="1548" d="M85 700q0 346 190 552t516 206q302 0 486.5 -200t184.5 -523q0 -351 -189 -555t-505 -204q-310 0 -496.5 201t-186.5 523zM335 715q0 -239 120 -385t314 -146q206 0 325 139t119 389q0 257 -115.5 397t-318.5 140q-197 0 -320.5 -147t-123.5 -387zM485 1894h214l221 -328 h-173z" />
<glyph unicode="&#xd3;" horiz-adv-x="1548" d="M85 700q0 346 190 552t516 206q302 0 486.5 -200t184.5 -523q0 -351 -189 -555t-505 -204q-310 0 -496.5 201t-186.5 523zM335 715q0 -239 120 -385t314 -146q206 0 325 139t119 389q0 257 -115.5 397t-318.5 140q-197 0 -320.5 -147t-123.5 -387zM618 1580l242 328h216 l-286 -328h-172z" />
<glyph unicode="&#xd4;" horiz-adv-x="1548" d="M85 700q0 346 190 552t516 206q302 0 486.5 -200t184.5 -523q0 -351 -189 -555t-505 -204q-310 0 -496.5 201t-186.5 523zM335 715q0 -239 120 -385t314 -146q206 0 325 139t119 389q0 257 -115.5 397t-318.5 140q-197 0 -320.5 -147t-123.5 -387zM468 1566l224 328h184 l225 -328h-160l-161 211l-157 -211h-155z" />
<glyph unicode="&#xd5;" horiz-adv-x="1548" d="M85 700q0 346 190 552t516 206q302 0 486.5 -200t184.5 -523q0 -351 -189 -555t-505 -204q-310 0 -496.5 201t-186.5 523zM335 715q0 -239 120 -385t314 -146q206 0 325 139t119 389q0 257 -115.5 397t-318.5 140q-197 0 -320.5 -147t-123.5 -387zM446 1554 q0 119 51 190.5t143 71.5q68 0 157 -51q72 -44 125 -44q81 0 81 114h119q0 -116 -51.5 -189.5t-139.5 -73.5q-72 0 -165 48q-78 45 -121 45q-84 0 -84 -111h-115z" />
<glyph unicode="&#xd6;" horiz-adv-x="1548" d="M85 700q0 346 190 552t516 206q302 0 486.5 -200t184.5 -523q0 -351 -189 -555t-505 -204q-310 0 -496.5 201t-186.5 523zM335 715q0 -239 120 -385t314 -146q206 0 325 139t119 389q0 257 -115.5 397t-318.5 140q-197 0 -320.5 -147t-123.5 -387zM441 1681q0 49 35.5 82 t86.5 33t88.5 -33.5t37.5 -81.5q0 -49 -36 -83t-86 -34q-52 0 -89 34.5t-37 82.5zM860 1681q0 49 35 82t85 33q53 0 89.5 -33.5t36.5 -81.5q0 -49 -35 -83t-88 -34q-50 0 -86.5 33t-36.5 84z" />
<glyph unicode="&#xd7;" horiz-adv-x="1422" d="M256 254l340 337l-340 340l115 117l341 -340l341 340l114 -119l-339 -338l340 -338l-116 -116l-340 340l-339 -340z" />
<glyph unicode="&#xd8;" horiz-adv-x="1548" d="M85 700q0 343 189.5 550.5t517.5 207.5q233 0 401 -125l132 157l99 -81l-137 -162q176 -194 176 -512q0 -351 -189 -555t-506 -204q-261 0 -433 145l-148 -177l-99 83l154 184q-157 193 -157 489zM324 715q0 -192 75 -321l658 777q-111 90 -276 90q-204 0 -330.5 -151.5 t-126.5 -394.5zM477 289q114 -117 291 -117q212 0 334 142.5t122 397.5q0 222 -88 357z" />
<glyph unicode="&#xd9;" horiz-adv-x="1440" d="M160 557v877h238v-828q0 -422 328 -422q316 0 316 407v843h238v-854q0 -604 -572 -604q-548 0 -548 581zM435 1894h214l221 -328h-173z" />
<glyph unicode="&#xda;" horiz-adv-x="1440" d="M160 557v877h238v-828q0 -422 328 -422q316 0 316 407v843h238v-854q0 -604 -572 -604q-548 0 -548 581zM571 1580l242 328h216l-286 -328h-172z" />
<glyph unicode="&#xdb;" horiz-adv-x="1440" d="M160 557v877h238v-828q0 -422 328 -422q316 0 316 407v843h238v-854q0 -604 -572 -604q-548 0 -548 581zM404 1567l224 328h184l225 -328h-160l-161 211l-157 -211h-155z" />
<glyph unicode="&#xdc;" horiz-adv-x="1440" d="M160 557v877h238v-828q0 -422 328 -422q316 0 316 407v843h238v-854q0 -604 -572 -604q-548 0 -548 581zM385 1683q0 49 35.5 82t86.5 33t88.5 -33.5t37.5 -81.5q0 -49 -36 -83t-86 -34q-52 0 -89 34.5t-37 82.5zM804 1683q0 49 35 82t85 33q53 0 89.5 -33.5t36.5 -81.5 q0 -49 -35 -83t-88 -34q-50 0 -86.5 33t-36.5 84z" />
<glyph unicode="&#xdd;" horiz-adv-x="1182" d="M10 1434h271l282 -615q5 -11 30 -83h3q9 32 33 83l295 615h252l-470 -913v-521h-238v516zM450 1566l242 328h216l-286 -328h-172z" />
<glyph unicode="&#xde;" horiz-adv-x="1197" d="M177 0v1434h238v-219h207q245 0 377 -115t132 -326q0 -209 -143 -341t-385 -132h-188v-301h-238zM415 496h154q151 0 231.5 69t80.5 198q0 257 -294 257h-172v-524z" />
<glyph unicode="&#xdf;" horiz-adv-x="1191" d="M151 0v1084q0 206 123.5 330t332.5 124q186 0 297.5 -96t111.5 -253q0 -129 -73 -231t-190 -141v-5q371 -74 371 -422q0 -176 -119.5 -295t-316.5 -119q-107 0 -190 26v206q70 -48 158 -48q102 0 166 64.5t64 172.5q0 131 -95.5 213t-263.5 99v171q109 18 180 92.5 t71 176.5q0 97 -50 150.5t-136 53.5q-209 0 -209 -280v-1073h-232z" />
<glyph unicode="&#xe0;" horiz-adv-x="1069" d="M75 275q0 290 334 338l304 43q0 219 -208 219q-183 0 -330 -126v203q162 96 374 96q388 0 388 -382v-666h-225v160h-4q-106 -184 -311 -184q-151 0 -236.5 82t-85.5 217zM284 1532h214l221 -328h-173zM297 300q0 -65 46.5 -106.5t124.5 -41.5q106 0 175.5 74.5 t69.5 187.5v89l-215 -30q-100 -13 -150.5 -48.5t-50.5 -124.5z" />
<glyph unicode="&#xe1;" horiz-adv-x="1069" d="M75 275q0 290 334 338l304 43q0 219 -208 219q-183 0 -330 -126v203q162 96 374 96q388 0 388 -382v-666h-225v160h-4q-106 -184 -311 -184q-151 0 -236.5 82t-85.5 217zM297 300q0 -65 46.5 -106.5t124.5 -41.5q106 0 175.5 74.5t69.5 187.5v89l-215 -30 q-100 -13 -150.5 -48.5t-50.5 -124.5zM370 1218l242 328h216l-286 -328h-172z" />
<glyph unicode="&#xe2;" horiz-adv-x="1069" d="M75 275q0 290 334 338l304 43q0 219 -208 219q-183 0 -330 -126v203q162 96 374 96q388 0 388 -382v-666h-225v160h-4q-106 -184 -311 -184q-151 0 -236.5 82t-85.5 217zM221 1204l224 328h184l225 -328h-160l-161 211l-157 -211h-155zM297 300q0 -65 46.5 -106.5 t124.5 -41.5q106 0 175.5 74.5t69.5 187.5v89l-215 -30q-100 -13 -150.5 -48.5t-50.5 -124.5z" />
<glyph unicode="&#xe3;" horiz-adv-x="1069" d="M75 275q0 290 334 338l304 43q0 219 -208 219q-183 0 -330 -126v203q162 96 374 96q388 0 388 -382v-666h-225v160h-4q-106 -184 -311 -184q-151 0 -236.5 82t-85.5 217zM196 1194q0 119 51 190.5t143 71.5q68 0 157 -51q72 -44 125 -44q81 0 81 114h119 q0 -116 -51.5 -189.5t-139.5 -73.5q-72 0 -165 48q-78 45 -121 45q-84 0 -84 -111h-115zM297 300q0 -65 46.5 -106.5t124.5 -41.5q106 0 175.5 74.5t69.5 187.5v89l-215 -30q-100 -13 -150.5 -48.5t-50.5 -124.5z" />
<glyph unicode="&#xe4;" horiz-adv-x="1069" d="M75 275q0 290 334 338l304 43q0 219 -208 219q-183 0 -330 -126v203q162 96 374 96q388 0 388 -382v-666h-225v160h-4q-106 -184 -311 -184q-151 0 -236.5 82t-85.5 217zM200 1320q0 49 35.5 82t86.5 33t88.5 -33.5t37.5 -81.5q0 -49 -36 -83t-86 -34q-52 0 -89 34.5 t-37 82.5zM297 300q0 -65 46.5 -106.5t124.5 -41.5q106 0 175.5 74.5t69.5 187.5v89l-215 -30q-100 -13 -150.5 -48.5t-50.5 -124.5zM619 1320q0 49 35 82t85 33q53 0 89.5 -33.5t36.5 -81.5q0 -49 -35 -83t-88 -34q-50 0 -86.5 33t-36.5 84z" />
<glyph unicode="&#xe5;" horiz-adv-x="1069" d="M75 275q0 290 334 338l304 43q0 219 -208 219q-183 0 -330 -126v203q162 96 374 96q388 0 388 -382v-666h-225v160h-4q-106 -184 -311 -184q-151 0 -236.5 82t-85.5 217zM297 300q0 -65 46.5 -106.5t124.5 -41.5q106 0 175.5 74.5t69.5 187.5v89l-215 -30 q-100 -13 -150.5 -48.5t-50.5 -124.5zM324 1376q0 98 63 156t161 58q96 0 157.5 -58.5t61.5 -149.5q0 -87 -65.5 -144.5t-160.5 -57.5q-94 0 -155.5 54t-61.5 142zM437 1386q0 -104 104 -104q48 0 79.5 29.5t31.5 74.5t-31.5 74.5t-79.5 29.5q-45 0 -74.5 -30t-29.5 -74z " />
<glyph unicode="&#xe6;" horiz-adv-x="1700" d="M75 279q0 306 379 331l259 16q0 250 -201 250q-178 0 -336 -115v196q152 91 357 91q240 0 311 -170h4q114 170 349 170q206 0 319.5 -135.5t113.5 -376.5v-87h-699q3 -142 85 -219.5t225 -77.5q171 0 310 99v-186q-135 -89 -367 -89q-275 0 -390 206h-4 q-140 -206 -372 -206q-160 0 -251.5 82.5t-91.5 220.5zM296 294q0 -64 46.5 -103t125.5 -39q103 0 174 74t71 186v55l-177 -11q-121 -7 -180.5 -43t-59.5 -119zM932 613h474q-2 127 -59 195.5t-160 68.5q-98 0 -168.5 -72t-86.5 -192z" />
<glyph unicode="&#xe7;" horiz-adv-x="963" d="M85 488q0 253 150.5 406.5t402.5 153.5q140 0 247 -49v-216q-107 80 -228 80q-147 0 -241 -99.5t-94 -260.5q0 -159 88.5 -251t237.5 -92q125 0 236 89v-202q-123 -71 -291 -71q-228 0 -368 142.5t-140 369.5zM432 -328q44 -6 71 -6q133 0 133 82q0 74 -121 74 q-10 0 -39 -4v182h136v-94q87 0 138 -40.5t51 -113.5q0 -194 -288 -194q-47 0 -81 3v111z" />
<glyph unicode="&#xe8;" horiz-adv-x="1088" d="M85 508q0 239 141.5 389.5t351.5 150.5t325 -135t115 -375v-89h-698q4 -142 87.5 -219t229.5 -77q164 0 301 98v-187q-140 -88 -370 -88q-226 0 -354.5 139.5t-128.5 392.5zM320 613h474q-1 125 -59 194.5t-160 69.5q-100 0 -169.5 -73t-85.5 -191zM321 1532h214 l221 -328h-173z" />
<glyph unicode="&#xe9;" horiz-adv-x="1088" d="M85 508q0 239 141.5 389.5t351.5 150.5t325 -135t115 -375v-89h-698q4 -142 87.5 -219t229.5 -77q164 0 301 98v-187q-140 -88 -370 -88q-226 0 -354.5 139.5t-128.5 392.5zM320 613h474q-1 125 -59 194.5t-160 69.5q-100 0 -169.5 -73t-85.5 -191zM405 1218l242 328h216 l-286 -328h-172z" />
<glyph unicode="&#xea;" horiz-adv-x="1088" d="M85 508q0 239 141.5 389.5t351.5 150.5t325 -135t115 -375v-89h-698q4 -142 87.5 -219t229.5 -77q164 0 301 98v-187q-140 -88 -370 -88q-226 0 -354.5 139.5t-128.5 392.5zM255 1204l224 328h184l225 -328h-160l-161 211l-157 -211h-155zM320 613h474q-1 125 -59 194.5 t-160 69.5q-100 0 -169.5 -73t-85.5 -191z" />
<glyph unicode="&#xeb;" horiz-adv-x="1088" d="M85 508q0 239 141.5 389.5t351.5 150.5t325 -135t115 -375v-89h-698q4 -142 87.5 -219t229.5 -77q164 0 301 98v-187q-140 -88 -370 -88q-226 0 -354.5 139.5t-128.5 392.5zM231 1320q0 49 35.5 82t86.5 33t88.5 -33.5t37.5 -81.5q0 -49 -36 -83t-86 -34q-52 0 -89 34.5 t-37 82.5zM320 613h474q-1 125 -59 194.5t-160 69.5q-100 0 -169.5 -73t-85.5 -191zM650 1320q0 49 35 82t85 33q53 0 89.5 -33.5t36.5 -81.5q0 -49 -35 -83t-88 -34q-50 0 -86.5 33t-36.5 84z" />
<glyph unicode="&#xec;" horiz-adv-x="535" d="M0 1532h214l221 -328h-173zM151 0v1024h233v-1024h-233z" />
<glyph unicode="&#xed;" horiz-adv-x="535" d="M93 1218l242 328h216l-286 -328h-172zM151 0v1024h233v-1024h-233z" />
<glyph unicode="&#xee;" horiz-adv-x="535" d="M-51 1204l224 328h184l225 -328h-160l-161 211l-157 -211h-155zM151 0v1024h233v-1024h-233z" />
<glyph unicode="&#xef;" horiz-adv-x="535" d="M-68 1320q0 49 35.5 82t86.5 33t88.5 -33.5t37.5 -81.5q0 -49 -36 -83t-86 -34q-52 0 -89 34.5t-37 82.5zM151 0v1024h233v-1024h-233zM351 1320q0 49 35 82t85 33q53 0 89.5 -33.5t36.5 -81.5q0 -49 -35 -83t-88 -34q-50 0 -86.5 33t-36.5 84z" />
<glyph unicode="&#xf0;" horiz-adv-x="1176" d="M85 506q0 239 129.5 388t349.5 149q122 0 208 -77l4 3q-90 154 -197 253l-295 -148l-65 118l257 123q-119 105 -266 201h280q67 -45 153 -119l282 139l65 -113l-242 -119q342 -307 342 -762q0 -247 -136 -405.5t-370 -158.5q-235 0 -367 141.5t-132 386.5zM322 509 q0 -161 71 -255t198 -94q121 0 191.5 96.5t70.5 257.5q0 349 -258 349q-127 0 -200 -95t-73 -259z" />
<glyph unicode="&#xf1;" horiz-adv-x="1195" d="M151 0v1024h233v-170h4q115 194 332 194q167 0 255 -108.5t88 -313.5v-626h-232v577q0 287 -203 287q-106 0 -175 -79.5t-69 -200.5v-584h-233zM265 1194q0 119 51 190.5t143 71.5q68 0 157 -51q72 -44 125 -44q81 0 81 114h119q0 -116 -51.5 -189.5t-139.5 -73.5 q-72 0 -165 48q-78 45 -121 45q-84 0 -84 -111h-115z" />
<glyph unicode="&#xf2;" horiz-adv-x="1223" d="M85 500q0 258 147.5 403t397.5 145q240 0 374 -141t134 -391q0 -245 -144.5 -392.5t-388.5 -147.5q-237 0 -378.5 143.5t-141.5 380.5zM322 506q0 -161 80 -253.5t214 -92.5q137 0 210.5 91t73.5 259q0 169 -73.5 261t-210.5 92q-136 0 -215 -95t-79 -262zM359 1532h214 l221 -328h-173z" />
<glyph unicode="&#xf3;" horiz-adv-x="1223" d="M85 500q0 258 147.5 403t397.5 145q240 0 374 -141t134 -391q0 -245 -144.5 -392.5t-388.5 -147.5q-237 0 -378.5 143.5t-141.5 380.5zM322 506q0 -161 80 -253.5t214 -92.5q137 0 210.5 91t73.5 259q0 169 -73.5 261t-210.5 92q-136 0 -215 -95t-79 -262zM454 1218 l242 328h216l-286 -328h-172z" />
<glyph unicode="&#xf4;" horiz-adv-x="1223" d="M85 500q0 258 147.5 403t397.5 145q240 0 374 -141t134 -391q0 -245 -144.5 -392.5t-388.5 -147.5q-237 0 -378.5 143.5t-141.5 380.5zM298 1204l224 328h184l225 -328h-160l-161 211l-157 -211h-155zM322 506q0 -161 80 -253.5t214 -92.5q137 0 210.5 91t73.5 259 q0 169 -73.5 261t-210.5 92q-136 0 -215 -95t-79 -262z" />
<glyph unicode="&#xf5;" horiz-adv-x="1223" d="M85 500q0 258 147.5 403t397.5 145q240 0 374 -141t134 -391q0 -245 -144.5 -392.5t-388.5 -147.5q-237 0 -378.5 143.5t-141.5 380.5zM279 1194q0 119 51 190.5t143 71.5q68 0 157 -51q72 -44 125 -44q81 0 81 114h119q0 -116 -51.5 -189.5t-139.5 -73.5q-72 0 -165 48 q-78 45 -121 45q-84 0 -84 -111h-115zM322 506q0 -161 80 -253.5t214 -92.5q137 0 210.5 91t73.5 259q0 169 -73.5 261t-210.5 92q-136 0 -215 -95t-79 -262z" />
<glyph unicode="&#xf6;" horiz-adv-x="1223" d="M85 500q0 258 147.5 403t397.5 145q240 0 374 -141t134 -391q0 -245 -144.5 -392.5t-388.5 -147.5q-237 0 -378.5 143.5t-141.5 380.5zM280 1320q0 49 35.5 82t86.5 33t88.5 -33.5t37.5 -81.5q0 -49 -36 -83t-86 -34q-52 0 -89 34.5t-37 82.5zM322 506q0 -161 80 -253.5 t214 -92.5q137 0 210.5 91t73.5 259q0 169 -73.5 261t-210.5 92q-136 0 -215 -95t-79 -262zM699 1320q0 49 35 82t85 33q53 0 89.5 -33.5t36.5 -81.5q0 -49 -35 -83t-88 -34q-50 0 -86.5 33t-36.5 84z" />
<glyph unicode="&#xf7;" horiz-adv-x="1422" d="M234 509v165h956v-165h-956zM592 200q0 51 34.5 88.5t87.5 37.5q117 0 117 -124q0 -51 -33.5 -85.5t-83.5 -34.5q-51 0 -86.5 34.5t-35.5 83.5zM597 977q0 52 33.5 88.5t87.5 36.5q118 0 118 -123q0 -53 -33.5 -87t-79.5 -34q-53 0 -89.5 34.5t-36.5 84.5z" />
<glyph unicode="&#xf8;" horiz-adv-x="1223" d="M44 10l144 155q-103 137 -103 341q0 256 147 399.5t395 143.5q185 0 310 -91l151 163l100 -91l-155 -164q105 -137 105 -344q0 -252 -145.5 -399t-387.5 -147q-194 0 -322 95l-140 -151zM313 509q0 -105 35 -178l450 484q-67 59 -181 59q-141 0 -222.5 -97t-81.5 -268z M421 213q76 -62 194 -62q145 0 221 94.5t76 266.5q0 110 -35 189z" />
<glyph unicode="&#xf9;" horiz-adv-x="1195" d="M131 412v612h232v-588q0 -276 213 -276q103 0 169.5 76t66.5 199v589h232v-1024h-232v162h-4q-101 -186 -314 -186q-363 0 -363 436zM305 1532h214l221 -328h-173z" />
<glyph unicode="&#xfa;" horiz-adv-x="1195" d="M131 412v612h232v-588q0 -276 213 -276q103 0 169.5 76t66.5 199v589h232v-1024h-232v162h-4q-101 -186 -314 -186q-363 0 -363 436zM455 1218l242 328h216l-286 -328h-172z" />
<glyph unicode="&#xfb;" horiz-adv-x="1195" d="M131 412v612h232v-588q0 -276 213 -276q103 0 169.5 76t66.5 199v589h232v-1024h-232v162h-4q-101 -186 -314 -186q-363 0 -363 436zM272 1204l224 328h184l225 -328h-160l-161 211l-157 -211h-155z" />
<glyph unicode="&#xfc;" horiz-adv-x="1195" d="M131 412v612h232v-588q0 -276 213 -276q103 0 169.5 76t66.5 199v589h232v-1024h-232v162h-4q-101 -186 -314 -186q-363 0 -363 436zM260 1320q0 49 35.5 82t86.5 33t88.5 -33.5t37.5 -81.5q0 -49 -36 -83t-86 -34q-52 0 -89 34.5t-37 82.5zM679 1320q0 49 35 82t85 33 q53 0 89.5 -33.5t36.5 -81.5q0 -49 -35 -83t-88 -34q-50 0 -86.5 33t-36.5 84z" />
<glyph unicode="&#xfd;" horiz-adv-x="1041" d="M6 1024h257l244 -744q4 -14 18 -74h5q5 23 18 72l256 746h234l-462 -1188q-144 -318 -404 -318q-73 0 -122 13v193q55 -18 100 -18q130 0 194 128l69 168zM387 1218l242 328h216l-286 -328h-172z" />
<glyph unicode="&#xfe;" horiz-adv-x="1234" d="M151 -471v1987h232v-661h4q117 193 343 193q197 0 307.5 -137.5t110.5 -368.5q0 -257 -124.5 -411.5t-340.5 -154.5q-194 0 -300 158v-605h-232zM381 435q0 -115 71 -195t181 -80q130 0 203.5 102t73.5 283q0 149 -69 233.5t-187 84.5q-123 0 -198 -89t-75 -223v-116z " />
<glyph unicode="&#xff;" horiz-adv-x="1041" d="M6 1024h257l244 -744q4 -14 18 -74h5q5 23 18 72l256 746h234l-462 -1188q-144 -318 -404 -318q-73 0 -122 13v193q55 -18 100 -18q130 0 194 128l69 168zM193 1320q0 49 35.5 82t86.5 33t88.5 -33.5t37.5 -81.5q0 -49 -36 -83t-86 -34q-52 0 -89 34.5t-37 82.5z M612 1320q0 49 35 82t85 33q53 0 89.5 -33.5t36.5 -81.5q0 -49 -35 -83t-88 -34q-50 0 -86.5 33t-36.5 84z" />
<glyph unicode="&#x152;" horiz-adv-x="1915" d="M85 700q0 346 192 552t522 206q92 0 182 -10q114 -14 116 -14h703v-202h-535v-408h496v-202h-496v-421h567v-201h-735q-17 0 -141 -14q-100 -10 -186 -10q-316 0 -500.5 201t-184.5 523zM336 715q0 -233 121.5 -382t318.5 -149q105 0 247 41v985q-144 39 -241 39 q-199 0 -322.5 -150t-123.5 -384z" />
<glyph unicode="&#x153;" horiz-adv-x="1897" d="M85 498q0 258 145 404t390 146q287 0 393 -208h4q122 208 394 208q198 0 308.5 -136.5t110.5 -371.5v-92h-700q3 -142 85.5 -219t225.5 -77q169 0 308 98v-187q-134 -87 -353 -87q-272 0 -385 214h-4q-130 -213 -413 -213q-234 0 -371.5 142.5t-137.5 378.5zM322 502 q0 -158 79.5 -249.5t213.5 -91.5q136 0 210.5 90.5t74.5 256.5q0 171 -74 263t-209 92q-136 0 -215.5 -96t-79.5 -265zM1131 612h474q-2 125 -59.5 194.5t-157.5 69.5q-102 0 -172.5 -75t-84.5 -189z" />
<glyph unicode="&#x178;" horiz-adv-x="1182" d="M10 1434h271l282 -615q5 -11 30 -83h3q9 32 33 83l295 615h252l-470 -913v-521h-238v516zM260 1682q0 49 35.5 82t86.5 33t88.5 -33.5t37.5 -81.5q0 -49 -36 -83t-86 -34q-52 0 -89 34.5t-37 82.5zM679 1682q0 49 35 82t85 33q53 0 89.5 -33.5t36.5 -81.5q0 -49 -35 -83 t-88 -34q-50 0 -86.5 33t-36.5 84z" />
<glyph unicode="&#x2c6;" horiz-adv-x="771" d="M65 1204l224 328h184l225 -328h-160l-161 211l-157 -211h-155z" />
<glyph unicode="&#x2dc;" horiz-adv-x="733" d="M35 1194q0 119 51 190.5t143 71.5q68 0 157 -51q72 -44 125 -44q81 0 81 114h119q0 -116 -51.5 -189.5t-139.5 -73.5q-72 0 -165 48q-78 45 -121 45q-84 0 -84 -111h-115z" />
<glyph unicode="&#x2000;" horiz-adv-x="954" />
<glyph unicode="&#x2001;" horiz-adv-x="1908" />
<glyph unicode="&#x2002;" horiz-adv-x="954" />
<glyph unicode="&#x2003;" horiz-adv-x="1908" />
<glyph unicode="&#x2004;" horiz-adv-x="636" />
<glyph unicode="&#x2005;" horiz-adv-x="477" />
<glyph unicode="&#x2006;" horiz-adv-x="318" />
<glyph unicode="&#x2007;" horiz-adv-x="318" />
<glyph unicode="&#x2008;" horiz-adv-x="238" />
<glyph unicode="&#x2009;" horiz-adv-x="381" />
<glyph unicode="&#x200a;" horiz-adv-x="106" />
<glyph unicode="&#x2010;" horiz-adv-x="823" d="M144 474v171h546v-171h-546z" />
<glyph unicode="&#x2011;" horiz-adv-x="823" d="M144 474v171h546v-171h-546z" />
<glyph unicode="&#x2012;" horiz-adv-x="823" d="M144 474v171h546v-171h-546z" />
<glyph unicode="&#x2013;" horiz-adv-x="1024" d="M0 474v171h1024v-171h-1024z" />
<glyph unicode="&#x2014;" horiz-adv-x="2048" d="M0 474v171h2048v-171h-2048z" />
<glyph unicode="&#x2018;" horiz-adv-x="525" d="M101 1017l163 445h153l-109 -445h-207z" />
<glyph unicode="&#x2019;" horiz-adv-x="525" d="M111 1017l113 445h203l-163 -445h-153z" />
<glyph unicode="&#x201a;" horiz-adv-x="525" d="M88 -227l113 445h204l-164 -445h-153z" />
<glyph unicode="&#x201c;" horiz-adv-x="879" d="M101 1017l163 445h153l-109 -445h-207zM456 1017l163 445h152l-112 -445h-203z" />
<glyph unicode="&#x201d;" horiz-adv-x="879" d="M111 1017l113 445h203l-163 -445h-153zM465 1017l111 445h205l-162 -445h-154z" />
<glyph unicode="&#x201e;" horiz-adv-x="879" d="M88 -227l113 445h204l-164 -445h-153zM443 -227l110 445h206l-164 -445h-152z" />
<glyph unicode="&#x2022;" horiz-adv-x="847" d="M171 612q0 103 75 178.5t179 75.5t177 -75t73 -179t-73 -177t-177 -73t-179 73t-75 177z" />
<glyph unicode="&#x2026;" horiz-adv-x="1666" d="M135 114q0 29 10.5 53.5t29 43t44.5 29t57 10.5q30 0 56.5 -10.5t46 -29t30.5 -43t11 -53.5q0 -28 -11 -52.5t-30.5 -42.5t-46 -28.5t-57.5 -10.5q-30 0 -56 10.5t-44.5 29t-29 43t-10.5 51.5zM689 114q0 30 11 55t30.5 43t45.5 28t56 10t56.5 -10.5t46 -29t30.5 -43 t11 -53.5q0 -28 -11 -52.5t-30.5 -42.5t-46 -28.5t-57.5 -10.5q-30 0 -56 10.5t-45 28.5t-30 42.5t-11 52.5zM1246 114q0 29 11 54t30 43t45 28.5t56 10.5t56.5 -10t46 -28t30.5 -43t11 -55q0 -29 -11 -53.5t-30.5 -42.5t-46 -28t-57.5 -10t-56.5 10.5t-44.5 29t-29.5 43 t-10.5 51.5z" />
<glyph unicode="&#x202f;" horiz-adv-x="381" />
<glyph unicode="&#x2039;" horiz-adv-x="673" d="M74 536l313 344h213l-318 -344l317 -336h-212z" />
<glyph unicode="&#x203a;" horiz-adv-x="673" d="M74 200l318 338l-317 342h212l313 -342l-313 -338h-213z" />
<glyph unicode="&#x205f;" horiz-adv-x="477" />
<glyph unicode="&#x20ac;" d="M104 468v163h103q-4 28 -4 69q0 42 6 96h-105v161h127q53 235 201.5 368t360.5 133q144 0 257 -56v-201q-111 78 -250 78q-120 0 -213 -87.5t-130 -234.5h465v-161h-491q-8 -88 -1 -165h492v-163h-470q69 -314 337 -314q125 0 261 87v-191q-138 -74 -294 -74 q-445 0 -530 492h-122z" />
<glyph unicode="&#x2122;" horiz-adv-x="1581" d="M76 1325v109h517v-109h-196v-553h-130v553h-191zM668 772v662h168l194 -477h4l201 477h161v-662h-127v463h-4l-193 -463h-93l-184 463h-4v-463h-123z" />
<glyph unicode="&#x25fc;" horiz-adv-x="1025" d="M0 0v1025h1025v-1025h-1025z" />
<glyph unicode="&#xfb01;" horiz-adv-x="1239" d="M47 842v182h175v166q0 162 106 255.5t265 93.5q86 0 136 -19v-193q-47 27 -107 27q-169 0 -169 -191v-139h238v-182h-237v-842h-232v842h-175zM837 1370q0 57 40.5 95t97.5 38q59 0 100 -38t41 -95q0 -54 -41 -92.5t-100 -38.5q-57 0 -97.5 37t-40.5 94zM858 0v1024h232 v-1024h-232z" />
<glyph unicode="&#xfb02;" horiz-adv-x="1239" d="M48 842v182h175v166q0 162 106 255.5t265 93.5q86 0 136 -19v-193q-47 27 -107 27q-169 0 -169 -191v-139h238v-182h-237v-842h-232v842h-175zM858 0v1516h233v-1516h-233z" />
</font>
</defs>
</svg>
